Порно Слон
21 Ноября 2018, 05:26:11 *
   Начало   Помощь Войти Регистрация  
Страниц: [1]
 
Автор Тема: Ruscams DIVVA многожеланная СВЕТА играет по полной [2012 г., SiteRip]  (Прочитано 81 раз)
history_slon
Мегапостер
Ветеран
*

Карма: 205
Offline Offline

Сообщений: 6704
Пригласил: 0



Ruscams DIVVA многожеланная СВЕТА играет по полной [2012 г., SiteRip]
« : 02 Октября 2018, 14:41:09 »

Ruscams DIVVA многожеланная СВЕТА играет по полной [2012 г., SiteRip]



Год производства: 2012 г.
Страна: Россия
Жанр: Solo, Masturbate, Anal
Продолжительность: 00:13:10

Описание: Полный приват со Светкой. Потрясающая женщина

Тех.данные
Video
ID : 2
Format : VC-1
Format profile : MP@HL
Codec ID : WMV3
Codec ID/Info : Windows Media Video 9
Codec ID/Hint : WMV3
Description of the codec : Windows Media Video 9
Duration : 13mn 10s
Bit rate mode : Variable
Bit rate : 616 Kbps
Width : 1 280 pixels
Height : 720 pixels
Display aspect ratio : 16:9
Frame rate : 15.000 fps
Bit depth : 8 bits
Scan type : Progressive
Compression mode : Lossy
Bits/(Pixel*Frame) : 0.045
Stream size : 58.1 MiB (90%)
Language : English (US)

Audio
ID : 1
Format : WMA
Format version : Version 2
Codec ID : 161
Codec ID/Info : Windows Media Audio
Description of the codec : Windows Media Audio 9.2 - 48 kbps, 44 kHz, mono (A/V) 1-pass CBR
Duration : 13mn 10s
Bit rate mode : Constant
Bit rate : 48.0 Kbps
Channel(s) : 1 channel
Sampling rate : 44.1 KHz
Bit depth : 16 bits
Stream size : 4.53 MiB (7%)
Language : English (US)
[свернуть]
Качество видео: SiteRip
Формат видео: WMV
Видео кодек: Windows Media
Аудио кодек: WMA



Размер:   65 MB

http://gigapeta.com/dl/8068010a0d13c2
Записан
Страниц: [1]
 
 
Перейти в:  

Новинки раздела - Женская мастурбация
DMCA
Powered by SMF 1.1.21 | SMF © 2006, Simple Machines LLC
Страница сгенерирована за 0.065 секунд. Запросов: 27.