Порно Слон
18 Сентября 2019, 01:11:07 *
   Начало   Помощь Войти Регистрация  
Страниц: [1]
 
Автор Тема: Very long hair [2016 г., Amateur, Reality, Teen, Russian, All Sex, CamRip]  (Прочитано 23 раз)
history_slon
Мегапостер
Ветеран
*

Карма: 320
Offline Offline

Сообщений: 12972
Пригласил: 0



Very long hair [2016 г., Amateur, Reality, Teen, Russian, All Sex, CamRip]
« : 08 Мая 2019, 09:23:18 »

Very long hair [2016 г., Amateur, Reality, Teen, Russian, All Sex, CamRip]



Год производства: 2016 г.
Подсайт и сайт: Нет

Жанр: Amateur, Reality, Teen, Russian, All Sex
Продолжительность: 15:41

Качество видео: CamRip
Формат видео: MPEG-4
Видео
Format profile : Base Media
Codec ID : isom (isom/iso2/avc1/mp41)
File size : 82.6 MiB
Duration : 15 min 41 s
Overall bit rate : 736 kb/s
Writing application : Lavf57.56.101
Video #1
ID : 1
Format : AVC
Format/Info : Advanced Video Codec
Format profile : High@L3
Format settings, CABAC : Yes
Format settings, ReFrames : 5 frames
Codec ID : avc1
Codec ID/Info : Advanced Video Coding
Duration : 15 min 41 s
Bit rate : 601 kb/s
Width : 600 pixels
Height : 480 pixels
Display aspect ratio : 5:4
Frame rate mode : Constant
Frame rate : 25.000 FPS
Color space : YUV
Chroma subsampling : 4:2:0
Bit depth : 8 bits
Scan type : Progressive
Bits/(Pixel*Frame) : 0.084
Stream size : 67.5 MiB (82%)
Writing library : x264 core 148

Аудио: ID : 2
Format : AAC
Format/Info : Advanced Audio Codec
Format profile : LC
Codec ID : 40
Duration : 15 min 41 s
Bit rate mode : Constant
Bit rate : 128 kb/s
Channel(s) : 2 channels
Channel positions : Front: L R
Sampling rate : 44.1 kHz
Frame rate : 43.066 FPS (1024 spf)
Compression mode : Lossy
Stream size : 14.4 MiB (17%)
Default : Yes
Alternate group : 1



Размер:   83 MB

http://gigapeta.com/dl/8414909ae0ee49
Записан
Страниц: [1]
 
 
Перейти в:  

Новинки раздела - Разные порно ролики
DMCA
Powered by SMF 1.1.21 | SMF © 2006, Simple Machines LLC
Страница сгенерирована за 0.085 секунд. Запросов: 29.