Порно Слон
19 Июня 2019, 01:47:08 *
   Начало   Помощь Войти Регистрация  
Страниц: [1]
 
Автор Тема: Long hair [2016 г., Amateur, Reality, Russian, Teen, All Sex, CamRip]  (Прочитано 23 раз)
history_slon
Мегапостер
Ветеран
*

Карма: 282
Offline Offline

Сообщений: 9951
Пригласил: 0



Long hair [2016 г., Amateur, Reality, Russian, Teen, All Sex, CamRip]
« : 08 Мая 2019, 09:35:18 »

Long hair [2016 г., Amateur, Reality, Russian, Teen, All Sex, CamRip]



Год производства: 2016 г.
Подсайт и сайт: нет

Жанр: Amateur, Reality, Russian, Teen, All Sex
Продолжительность: 17.18

Качество видео: CamRip
Формат видео: MPEG-4

Видео:Format profile : Base Media
Codec ID : isom (isom/iso2/avc1/mp41)
File size : 45.1 MiB
Duration : 17 min 18 s
Overall bit rate mode : Variable
Overall bit rate : 364 kb/s
Writing application : Lavf56.40.101
Video #1
ID : 1
Format : AVC
Format/Info : Advanced Video Codec
Format profile : High@L2.1
Format settings, CABAC : Yes
Format settings, ReFrames : 4 frames
Codec ID : avc1
Codec ID/Info : Advanced Video Coding
Duration : 17 min 18 s
Bit rate : 300 kb/s
Width : 320 pixels
Height : 240 pixels
Display aspect ratio : 4:3
Original display aspect ratio : 4:3
Frame rate mode : Constant
Frame rate : 25.000 FPS
Color space : YUV
Chroma subsampling : 4:2:0
Bit depth : 8 bits
Scan type : Progressive
Bits/(Pixel*Frame) : 0.156
Stream size : 37.2 MiB (83%)
Writing library : x264 core 125

Аудио: ID : 2
Format : AAC
Format/Info : Advanced Audio Codec
Format profile : LC
Codec ID : 40
Duration : 17 min 18 s
Bit rate mode : Variable
Bit rate : 57.5 kb/s
Maximum bit rate : 64.0 kb/s
Channel(s) : 2 channels
Channel positions : Front: L R
Sampling rate : 44.1 kHz
Frame rate : 43.066 FPS (1024 spf)
Compression mode : Lossy
Stream size : 7.12 MiB (16%)
Default : Yes
Alternate group : 1



Размер:   45 MB

http://gigapeta.com/dl/8414925a2042a9
Записан
Страниц: [1]
 
 
Перейти в:  

Новинки раздела - Разные порно ролики
DMCA
Powered by SMF 1.1.21 | SMF © 2006, Simple Machines LLC
Страница сгенерирована за 0.074 секунд. Запросов: 29.